Login
Username:
Password:
[Signup]
[Recover Account]


Browse Torrents

Poll


You must be logged in to view polls



Latest Torrents
TMZ.on.TV.2018.12....
- [Size: 153.81 MB]

Murder.in.the.Hear...
- [Size: 740.23 MB]

Murder.in.the.Hear...
- [Size: 765.93 MB]

Babumoshai Bandook...
- [Size: 1.56 GB]

The.Sisters.Brothe...
- [Size: 4.24 GB]


Torrent Details For "+18 Bloodstone Subspecies Ii 1993 x264 720p Esub BluRay Dual Audio English Hindi GOPISAHI"

+18 Bloodstone Subspecies Ii 1993 x264 720p Esub BluRay Dual Audio English Hindi GOPISAHI

Download this torrent | Magnet Download
Health:
Seeds: 329
Leechers: 189
Completed: 629 
Last Checked: 18-11-2018 11:50:35
External Torrent
Update Stats



Images Host

Poster
No poster


Watch-Free-HD     Download

Details
Name:+18 Bloodstone Subspecies Ii 1993 x264 720p Esub BluRay Dual Audio English Hindi GOPISAHI
Description:
 http://www.gopisahi.pw/

+18 Bloodstone Subspecies Ii 1993 x264 720p Esub BluRay Dual Audio English Hindi GOPISAHI
Format                         : Matroska
Format version                 : Version 4 / Version 2
File size                      : 492 MiB
Duration                       : 1 h 26 min
Overall bit rate               : 794 kb/s
Movie name                     : Bloodstone Subspecies Ii 1993 GOPISAHI

Video
Format                         : AVC
Format/Info                    : Advanced Video Codec
Codec ID                       : V_MPEG4/ISO/AVC
Duration                       : 1 h 26 min
Bit rate                       : 599 kb/s
Width                          : 1 280 pixels
Height                         : 720 pixels
Display aspect ratio           : 16:9
Frame rate mode                : Constant
Frame rate                     : 23.976 (24000/1001) FPS
Color space                    : YUV
Chroma subsampling             : 4:2:0
Bit depth                      : 8 bits
Scan type                      : Progressive
Bits/(Pixel*Frame)             : 0.027
Stream size                    : 371 MiB (75%)
Title                          : GOPISAHI
Writing library                : x264 core 155 r2901 7d0ff22

Audio #1
Format                         : AAC
Duration                       : 1 h 26 min
Bit rate                       : 96.0 kb/s
Channel(s)                     : 2 channels
Channel positions              : Front: L R
Sampling rate                  : 48.0 kHz
Frame rate                     : 46.875 FPS (1024 SPF)
Compression mode               : Lossy
Delay relative to video        : -21 ms
Stream size                    : 59.7 MiB (12%)
Title                          : GOPISAHI
Language                       : Hindi

Audio #2
Format                         : AAC
Duration                       : 1 h 26 min
Bit rate                       : 96.0 kb/s
Channel(s)                     : 2 channels
Channel positions              : Front: L R
Sampling rate                  : 48.0 kHz
Frame rate                     : 46.875 FPS (1024 SPF)
Compression mode               : Lossy
Delay relative to video        : -21 ms
Stream size                    : 59.7 MiB (12%)
Title                          : GOPISAHI
Language                       : English

Text
Language                       : English


Category:Movies > Hollywood Dub
Lang:English  English
Total Size:492.37 MB
Info Hash:9ec244ccb1b5fe50fd94440f610da4e560615b2f
Added By:gopisahi
Date Added:18-11-2018 01:35:20
Downloads:854

Ratings:Not Yet Rated (Log in to rate it)


Tracker:
udp://tracker.coppersurfer.tk:6969/announce


File List: 


Comments

No comments still posted

Top
Copyright 2018 DownloadHD -|- Page Generated In 2.555777 secs.
-|- RSS Feed -|- Feed Info