Login
Username:
Password:
[Signup]
[Recover Account]


Browse Torrents

Poll


You must be logged in to view polls



Latest Torrents
Ghost.Adventures.S...
- [Size: 878.60 MB]

Shut.Up.and.Dribbl...
- [Size: 447.01 MB]

Shut.Up.and.Dribbl...
- [Size: 1.25 GB]

Shut.Up.and.Dribbl...
- [Size: 463.09 MB]

Shut.Up.and.Dribbl...
- [Size: 1.23 GB]


Torrent Details For "Thugs of Hindostan 2018 Hindi 720p PRE DVDRip x264 [MW]"

Thugs of Hindostan 2018 Hindi 720p PRE DVDRip x264 [MW]

Download this torrent | Magnet Download
Health:
Seeds: 805
Leechers: 476
Completed: 3,752 
Last Checked: 10-11-2018 08:00:22
External Torrent
Update Stats



Images Host

Poster
No poster


Watch-Free-HD     Download

Details
Name:Thugs of Hindostan 2018 Hindi 720p PRE DVDRip x264 [MW]
Description:

 


General
Format                                   : Matroska
Format version                           : Version 4 / Version 2
File size                                : 1.30 GiB
Duration                                 : 2 h 33 min
Overall bit rate                         : 1 211 kb/s

Video
ID                                       : 1
Format                                   : AVC
Format/Info                              : Advanced Video Codec
Format profile                           : [email protected]
Format settings                          : CABAC / 4 Ref Frames
Format settings, CABAC                   : Yes
Format settings, RefFrames               : 4 frames
Codec ID                                 : V_MPEG4/ISO/AVC
Duration                                 : 2 h 33 min
Bit rate                                 : 1 100 kb/s
Width                                    : 1 280 pixels
Height                                   : 560 pixels
Display aspect ratio                     : 2.25:1
Frame rate mode                          : Constant
Frame rate                               : 25.000 FPS
Color space                              : YUV
Chroma subsampling                       : 4:2:0
Bit depth                                : 8 bits
Scan type                                : Progressive
Bits/(Pixel*Frame)                       : 0.061
Stream size                              : 1.18 GiB (91%)
Writing library                          : x264 core 155 r2901 7d0ff22
Default                                  : Yes
Forced                                   : No

Audio
ID                                       : 2
Format                                   : AAC
Format/Info                              : Advanced Audio Codec
Format profile                           : LC
Codec ID                                 : A_AAC-2
Duration                                 : 2 h 32 min
Bit rate                                 : 111 kb/s
Channel(s)                               : 2 channels
Channel positions                        : Front: L R
Sampling rate                            : 48.0 kHz
Frame rate                               : 46.875 FPS (1024 SPF)
Compression mode                         : Lossy
Stream size                              : 121 MiB (9%)
Language                                 : Hindi
Default                                  : Yes
Forced                                   : No


 http://pichub.site/image/Vom4g
 http://pichub.site/image/VoGLX
 http://pichub.site/image/VoNQ8
 http://pichub.site/image/Vov7J
 http://pichub.site/image/VoxG5
 http://pichub.site/image/Vo0Zh

Category:Movies > Bollywood
Lang:Hindi
Total Size:1.30 GB
Info Hash:da4cb38c3df5d70835b5dcd5c22d1ffcbcb3f6ac
Added By:Freaky
Date Added:09-11-2018 09:19:11
Downloads:663

Ratings:Not Yet Rated (Log in to rate it)


Tracker:
udp://tracker.coppersurfer.tk:6969/announce


File List: 


Comments

No comments still posted

Top
Copyright 2018 DownloadHD -|- Page Generated In 0.897900 secs.
-|- RSS Feed -|- Feed Info