Login
Username:
Password:
[Signup]
[Recover Account]


Browse Torrents

Poll


You must be logged in to view polls



Latest Torrents
Ghost.Adventures.S...
- [Size: 878.60 MB]

Shut.Up.and.Dribbl...
- [Size: 447.01 MB]

Shut.Up.and.Dribbl...
- [Size: 1.25 GB]

Shut.Up.and.Dribbl...
- [Size: 463.09 MB]

Shut.Up.and.Dribbl...
- [Size: 1.23 GB]


Torrent Details For "Mile.22.2018.1080p.WEBRip.AAC2.0.x264-SHITBOX"

Mile.22.2018.1080p.WEBRip.AAC2.0.x264-SHITBOX

Download this torrent | Magnet Download
Health:
Seeds: 7,512
Leechers: 4,538
Completed: 111,548 
Last Checked: 24-10-2018 14:25:41
External Torrent
Update Stats



Images Host

Poster


iMDB
Title: Mile 22
Year: 2018
Runtime: 95 minutes
Language: English, Russian, Indonesian
All Genres: Action, Thriller
Tagline: Option 1: Diplomacy. Option 2: Military. Meet Option 3
Director: Peter Berg
Writing By: Lea Carpenter,Graham Roland,Lea Carpenter,
Produced By: Peter Berg,David Bernon,Stuart M. Besser,Andrés Calderón,Scott Carmel,Randall Emmett,Jonathan Gray,Eric Heffron,Stephen Levinson,Rosmary Muñoz,Judd Payne,John Logan Pierson,Matthew Rhodes,Graham Roland,Sam Slater,Mark Wahlberg,
Music: Jeff Russo
Cast:
Mark Wahlberg as James Silva
Lauren Cohan as Alice Kerr
Iko Uwais as Li Noor
John Malkovich as Bishop
Ronda Rousey as Sam Snow
Carlo Alban as William Douglas III
Natasha Goubskaya as Vera
Chae-rin Lee as Queen
Sam Medina as Axel
Keith Arthur Bolden as King
Trailers:
Theatrical Trailer
Trailer #2
Official Trailer


Watch-Free-HD     Download

Details
Name:Mile.22.2018.1080p.WEBRip.AAC2.0.x264-SHITBOX
Description:

Video
ID : 1
Format : AVC
Format/Info : Advanced Video Codec
Format profile : [email protected]
Format settings : CABAC / 4 Ref Frames
Format settings, CABAC : Yes
Format settings, ReFrames : 4 frames
Codec ID : V_MPEG4/ISO/AVC
Duration : 1 h 34 min
Bit rate : 15.9 Mb/s
Width : 1 920 pixels
Height : 800 pixels
Display aspect ratio : 2.40:1
Frame rate mode : Constant
Frame rate : 25.000 FPS
Color space : YUV
Chroma subsampling : 4:2:0
Bit depth : 8 bits
Scan type : Progressive
Bits/(Pixel*Frame) : 0.413
Stream size : 10.2 GiB (98%)
Title : Mile.22.2018.1080p.WEBRip.AAC2.0.x264-SHITBOX
Writing library : x264 core 142 r2479 dd79a61
Encoding settings : cabac=1 / ref=1 / deblock=1:0:0 / analyse=0x3:0x113 / me=hex / subme=2 / psy=1 / psy_rd=1.00:0.00 / mixed_ref=0 / me_range=16 / chroma_me=1 / trellis=0 / 8x8dct=1 / cqm=0 / deadzone=21,11 / fast_pskip=1 / chroma_qp_offset=0 / threads=18 / lookahead_threads=6 / sliced_threads=0 / nr=0 / decimate=1 / interlaced=0 / bluray_compat=0 / constrained_intra=0 / bframes=3 / b_pyramid=2 / b_adapt=1 / b_bias=0 / direct=1 / weightb=1 / open_gop=0 / weightp=1 / keyint=250 / keyint_min=25 / scenecut=40 / intra_refresh=0 / rc_lookahead=10 / rc=abr / mbtree=1 / bitrate=15854 / ratetol=1.0 / qcomp=0.60 / qpmin=0 / qpmax=69 / qpstep=4 / vbv_maxrate=62500 / vbv_bufsize=78125 / nal_hrd=none / filler=0 / ip_ratio=1.40 / aq=1:1.00
Language : English
Default : Yes
Forced : No
Color range : Limited
Color primaries : BT.709
Transfer characteristics : BT.709
Matrix coefficients : BT.709

Audio
ID : 2
Format : AAC LC
Format/Info : Advanced Audio Codec Low Complexity
Codec ID : A_AAC-2
Duration : 1 h 34 min
Bit rate : 256 kb/s
Channel(s) : 2 channels
Channel layout : L R
Sampling rate : 48.0 kHz
Frame rate : 46.875 FPS (1024 SPF)
Compression mode : Lossy
Stream size : 173 MiB (2%)
Title : Mile.22.2018.1080p.WEBRip.AAC2.0.x264-SHITBOX
Language : English
Default : Yes
Forced : No


 http://imagecurl.com/viewer.p...7343617298349953.png

 http://imagecurl.com/viewer.p...3003457237673083.png

 http://imagecurl.com/viewer.p...8017086.png[/center]
Category:Movies > WEB-HD
Lang:English  English
Total Size:10.38 GB
Info Hash:876050781bd8b3a12ba66ebb9ea9db08399e7dbb
Added By:Scene
Date Added:23-10-2018 17:35:27
Downloads:384

Ratings:Not Yet Rated (Log in to rate it)


Tracker:
http://tracker.trackerfix.com:80/announce


File List: 


Comments

No comments still posted

Top
Copyright 2018 DownloadHD -|- Page Generated In 0.202123 secs.
-|- RSS Feed -|- Feed Info